Főoldal Profilom Regisztráció Kilépés Belépés


[ Új üzenetek · Tagok · Fórumszabályzat · Keresés · RSS ]
  • Oldal 1 / 1
  • 1
Data Filmek » Filmek Műfajok Szerint » DOKUMENTUM » IMAX - The Great Barrier Reef.Eng.HunSub
IMAX - The Great Barrier Reef.Eng.HunSub
axissDátum: Csütörtök, 2012-Júl-05, 16:55 | Üzenet # 1
Csoport: Felhasználók
Üzenetek: 67
Helyzet: Offline
A Nagy Korall zátony
HDTvRip
Feliratos amerikai természet-dokumentumfilm

Director: George Casey
Writers: George Casey, Mose Richards
Stars: Philip L. Clarke, Rosalind Ayres and David Gulpili



Nagy Korallzátony a föld egyik legnagyszerűbb természeti csodája, mely közel 3200 kilométer hosszan terül el az ausztráliai Queensland partvidéke mentén. Gyakran úgy emlegetik, mint a létező legnagyobb élő szervezetet - ám igazából közel háromezer, egymással szomszédos kisebb zátonyból áll. A Nagy Korallzátony a merülés szerelmeseinek mekkája, olyan hely, amelyet minden búvár életében legalább egyszer szeretne felkeresni... A film ezt a csodálatos és sokszínű vízalatti világot mutatja be, ám nemcsak a zátony változatos formájú növényeiben és színes állatvilágában gyönyörködhetünk, de láthatjuk és megérthetjük ökoszisztémájának összetettségét, lakóinak egymásrautaltságát és az egész rendszer törékeny egyensúlyát.



LetöltésCsak felhasználó férhet hozzá





Info:

Complete name : IMAX-The.Great.Barrier.Reef.HunSub.mkv
Format : Matroska
File size : 1.09 GiB
Duration : 39mn 23s
Overall bit rate : 3 974 Kbps
Encoded date : UTC 2011-07-02 18:43:06
Writing application : mkvmerge v2.5.1 ('He Wasn't There') built on Feb 22 2009 18:19:47
Writing library : libebml v0.7.7 + libmatroska v0.8.1
Video #1
ID : 1
Format : AVC
Format/Info : Advanced Video Codec
Format profile : High@L4.1
Format settings, CABAC : Yes
Format settings, ReFrames : 4 frames
Codec ID : V_MPEG4/ISO/AVC
Duration : 39mn 23s
Bit rate : 3 667 Kbps
Width : 1 280 pixels
Height : 720 pixels
Display aspect ratio : 16:9
Frame rate : 23.976 fps
Color space : YUV
Chroma subsampling : 4:2:0
Bit depth : 8 bits
Scan type : Progressive
Bits/(Pixel*Frame) : 0.166
Stream size : 989 MiB (88%)
Language : English
Audio #2
ID : 2
Format : AC-3
Format/Info : Audio Coding 3
Mode extension : CM (complete main)
Codec ID : A_AC3
Duration : 39mn 23s
Bit rate mode : Constant
Bit rate : 384 Kbps
Channel(s) : 6 channels
Channel positions : Front: L C R, Side: L R, LFE
Sampling rate : 48.0 KHz
Bit depth : 16 bits
Compression mode : Lossy
Stream size : 108 MiB (10%)
Text #3
ID : 3
Format : UTF-8
Codec ID : S_TEXT/UTF8
Codec ID/Info : UTF-8 Plain Text
Language : Hungarian
 
Data Filmek » Filmek Műfajok Szerint » DOKUMENTUM » IMAX - The Great Barrier Reef.Eng.HunSub
  • Oldal 1 / 1
  • 1
Keresés:



Copyright MyCorp © 2020

data mozi,data filmek,data