Főoldal Profilom Regisztráció Kilépés Belépés


[ Új üzenetek · Tagok · Fórumszabályzat · Keresés · RSS ]
  • Oldal 1 / 1
  • 1
Data Filmek » Filmek Műfajok Szerint » DOKUMENTUM » IMAX-The Greatest Places.Eng.HunSub
IMAX-The Greatest Places.Eng.HunSub
axissDátum: Csütörtök, 2012-Júl-05, 07:01 | Üzenet # 1
Csoport: Felhasználók
Üzenetek: 67
Helyzet: Offline
A Föld arcai
(The Greatest Places)
Feliratos amerikai természet-dokumentumfilm.1998
HDTV



Ellátogatunk Amazóniába, bolygónk legnagyobb összefüggő folyórendszeréhez, Grönlandra, a világ legnagyobb szigetére, melyet egész évben jégből és hóból álló takaró borít, az Iguazu vízesés-rendszerhez, ahol a 275 különálló zuhatag dübörgésének hangja már kilométerekről hallható, Madagaszkár szigetére, ahol a növényi és állatfajok tízezrei élnek paradicsomi változatosságban, a Namíb-sivatagba, a csend birodalmába, a világ legnagyobb, vándorló homokdűnéi közé, az Okavango deltavidékére, a tizenöt-ezer négyzetkilométernyi, lagúnák és csatornák által alkotott termékeny és varázslatos világba, és Tibetbe, a világ tetejére, az Ázsiát tápláló óriási folyamok több ezer méter magasságban elterülő forrásvidékére...



LetöltésCsak felhasználó férhet hozzá





Info

Complete name : IMAX-The.Greatest.Places.HunSub.mkv
Format : Matroska
File size : 3.85 GiB
Duration : 40mn 5s
Overall bit rate : 13.7 Mbps
Movie name : ENCODED BY AtZLIT 2010
Encoded date : UTC 2011-04-20 21:35:30
Writing application : mkvmerge v2.2.0 ('Turn It On Again') built on Mar 4 2008 13:20:25
Writing library : libebml v0.7.7 + libmatroska v0.8.1
Video #1
ID : 1
Format : AVC
Format/Info : Advanced Video Codec
Format profile : High@L4.0
Format settings, CABAC : Yes
Format settings, ReFrames : 3 frames
Codec ID : V_MPEG4/ISO/AVC
Duration : 40mn 5s
Bit rate mode : Variable
Bit rate : 13.4 Mbps
Maximum bit rate : 25.0 Mbps
Width : 1 280 pixels
Height : 720 pixels
Display aspect ratio : 16:9
Frame rate : 29.970 fps
Color space : YUV
Chroma subsampling : 4:2:0
Bit depth : 8 bits
Scan type : Progressive
Bits/(Pixel*Frame) : 0.484
Stream size : 3.64 GiB (95%)
Title : AtZLIT 2010
Language : English
Audio #2
ID : 2
Format : AC-3
Format/Info : Audio Coding 3
Mode extension : CM (complete main)
Codec ID : A_AC3
Duration : 40mn 5s
Bit rate mode : Constant
Bit rate : 448 Kbps
Channel(s) : 6 channels
Channel positions : Front: L C R, Side: L R, LFE
Sampling rate : 48.0 KHz
Bit depth : 16 bits
Compression mode : Lossy
Stream size : 128 MiB (3%)
Title : AC3 5.1
Language : English
Text #3
ID : 3
Format : UTF-8
Codec ID : S_TEXT/UTF8
Codec ID/Info : UTF-8 Plain Text
Title : AtZLIT 2010
Language : English
Text #4
ID : 4
Format : UTF-8
Codec ID : S_TEXT/UTF8
Codec ID/Info : UTF-8 Plain Text
Language : Hungarian
 
Data Filmek » Filmek Műfajok Szerint » DOKUMENTUM » IMAX-The Greatest Places.Eng.HunSub
  • Oldal 1 / 1
  • 1
Keresés:



Copyright MyCorp © 2020

data mozi,data filmek,data