Főoldal Profilom Regisztráció Kilépés Belépés


[ Új üzenetek · Tagok · Fórumszabályzat · Keresés · RSS ]
  • Oldal 1 / 1
  • 1
Data Filmek » Filmek Műfajok Szerint » DOKUMENTUM » IMAX - Extreme.Eng.HunSub
IMAX - Extreme.Eng.HunSub
axissDátum: Csütörtök, 2012-Júl-05, 06:35 | Üzenet # 1
Csoport: Felhasználók
Üzenetek: 67
Helyzet: Offline
Extrém Sportok

Feliratos amerikai dokumentumfilm

1999

Director: Jon Long
Stars: Lynn Hill, Nancy Feagin and Ross Clarke-Jones



Extrém körülmények,extrém helyek.Húsz méteres hullámok,90 fokos jégfalak,
és gleccserek,melyet a különleges emberek le akarnak győzni.Hihetetlen felvételek,élőben.



LetöltésCsak felhasználó férhet hozzá



Info

Complete name : IMAX-Extreme.1080p.Eng.HunSub.mkv
Format : Matroska
File size : 4.37 GiB
Duration : 44mn 34s
Overall bit rate : 14.0 Mbps
Movie name : 00005
Encoded date : UTC 2011-08-28 08:23:58
Writing application : mkvmerge v2.5.1 ('He Wasn't There') built on Feb 22 2009 18:19:47
Writing library : libebml v0.7.7 + libmatroska v0.8.1
Video #1
ID : 1
Format : AVC
Format/Info : Advanced Video Codec
Format profile : High@L4.1
Format settings, CABAC : Yes
Format settings, ReFrames : 4 frames
Format settings, GOP : M=6, N=15
Codec ID : V_MPEG4/ISO/AVC
Duration : 44mn 34s
Bit rate : 13.4 Mbps
Width : 1 916 pixels
Height : 1 080 pixels
Display aspect ratio : 16:9
Frame rate : 23.976 fps
Color space : YUV
Chroma subsampling : 4:2:0
Bit depth : 8 bits
Scan type : Progressive
Bits/(Pixel*Frame) : 0.270
Stream size : 4.09 GiB (93%)
Title : x264
Language : English
Audio #2
ID : 2
Format : AC-3
Format/Info : Audio Coding 3
Mode extension : CM (complete main)
Codec ID : A_AC3
Duration : 44mn 34s
Bit rate mode : Constant
Bit rate : 640 Kbps
Channel(s) : 6 channels
Channel positions : Front: L C R, Side: L R, LFE
Sampling rate : 48.0 KHz
Bit depth : 16 bits
Compression mode : Lossy
Stream size : 204 MiB (5%)
Title : AC3
Language : English
Text #3
ID : 3
Format : UTF-8
Codec ID : S_TEXT/UTF8
Codec ID/Info : UTF-8 Plain Text
Language : Hungarian
Text #4
ID : 4
Format : UTF-8
Codec ID : S_TEXT/UTF8
Codec ID/Info : UTF-8 Plain Text
Title : SDH
Language : English
 
Data Filmek » Filmek Műfajok Szerint » DOKUMENTUM » IMAX - Extreme.Eng.HunSub
  • Oldal 1 / 1
  • 1
Keresés:



Copyright MyCorp © 2020

data mozi,data filmek,data