Főoldal Profilom Regisztráció Kilépés Belépés


[ Új üzenetek · Tagok · Fórumszabályzat · Keresés · RSS ]
  • Oldal 1 / 1
  • 1
Data Filmek » Filmek Műfajok Szerint » DOKUMENTUM » IMAX-Antarctica.Eng.HunSub
IMAX-Antarctica.Eng.HunSub
axissDátum: Csütörtök, 2012-Júl-05, 06:27 | Üzenet # 1
Csoport: Felhasználók
Üzenetek: 67
Helyzet: Offline
IMAX-Antarctica.Eng.HunSub

Feliratos amerikai dokumentumfilm

Director: John Weiley
Writers: Les Murray, John Weiley
Stars: Alex Scott



Az örök fagy világa.A senkiföldje,amely oly sok fejtörést okozott a kutatóknak.Sokáig felfedezetlen volt,de ma egyre inkább próbáljuk megismerni,feltérképezni.
Hihetelen állatvilág,csodaszép hófehér csillógó varázslat és örök fagy: ez Antarctica.



LetöltésCsak felhasználó férhet hozzá



Complete name : IMAX-Antarctica.Eng.HunSub.mkv
Format : Matroska
File size : 3.50 GiB
Duration : 39mn 9s
Overall bit rate : 12.8 Mbps
Encoded date : UTC 2011-04-21 23:34:44
Writing application : mkvmerge v2.2.0 ('Turn It On Again') built on Mar 4 2008 13:20:25
Writing library : libebml v0.7.7 + libmatroska v0.8.1
Video #1
ID : 1
Format : AVC
Format/Info : Advanced Video Codec
Format profile : High@L4.1
Format settings, CABAC : Yes
Format settings, ReFrames : 5 frames
Codec ID : V_MPEG4/ISO/AVC
Duration : 39mn 9s
Bit rate : 12.3 Mbps
Width : 1 920 pixels
Height : 1 080 pixels
Display aspect ratio : 16:9
Frame rate : 24.000 fps
Color space : YUV
Chroma subsampling : 4:2:0
Bit depth : 8 bits
Scan type : Progressive
Bits/(Pixel*Frame) : 0.248
Stream size : 3.31 GiB (95%)
Writing library : x264 core 65 r1057M 5f8a149
Audio #2
ID : 2
Format : AC-3
Format/Info : Audio Coding 3
Mode extension : CM (complete main)
Codec ID : A_AC3
Duration : 39mn 9s
Bit rate mode : Constant
Bit rate : 448 Kbps
Channel(s) : 6 channels
Channel positions : Front: L C R, Side: L R, LFE
Sampling rate : 48.0 KHz
Bit depth : 16 bits
Compression mode : Lossy
Stream size : 125 MiB (4%)
Text #3
ID : 3
Format : UTF-8
Codec ID : S_TEXT/UTF8
Codec ID/Info : UTF-8 Plain Text
Language : Hungarian
 
Data Filmek » Filmek Műfajok Szerint » DOKUMENTUM » IMAX-Antarctica.Eng.HunSub
  • Oldal 1 / 1
  • 1
Keresés:



Copyright MyCorp © 2020

data mozi,data filmek,data